» » » Город грехов / Sin City (2005) BDRip 720p

Просмотров: 8 928


Просмотров: 8 000


Просмотров: 6 760


Просмотров: 4 202


Просмотров: 4 023


Просмотров: 2 163


Просмотров: 2 154

Добавил: admin | Жанр: Фильмы / Боевики | 2-02-2011, 00:00 | Просмотров: 294

Город грехов / Sin City (2005) BDRip 720p скачать торрент бесплатно в хорошем качестве









Информация о фильме
Название: Город грехов
Оригинальное название: Sin City
Год выхода: 2005
Жанр: Боевик, триллер, криминал, детектив
Режиссер: Фрэнк Миллер, Роберт Родригес, Квентин Тарантино
В ролях: Мария Белло, Джессика Альба, Джейми Кинг, Клайв Оуэн, Элайджа Вуд, Бенисио Дель Торо, Майкл Кларк Данкан, Карла Гуджино, Джош Хартнетт, Майкл Мэдсен, Бриттани Мерфи, Микки Рурк, Ник Сталь, Марли Шелтон, Девон Аоки, Джейсон Дуглас, Рик Гомес, Брюс Уиллис, Розарио Доусон, Пауэрс Бут, Рутгер Хауэр

описание


Город грехов – место где, преступность взяла верх над законом, где правит сила, где полицейские уже давно ничего не контролируют. Кровь льется рекой, продажные полицейские, сумасшедшие маньяки, любимым лакомством которых является человеческая плоть, проститутки, с легкостью убивающие тех, кто посмел поднять на них руку – все это в городе грехов самые обычные вещи. Но есть и те, кто сохранил в душе совесть и честь, они пытаются противостоять Городу грехов, всем тем мерзавцам и подлецам, которые населяют его.


INFO


Файл
Формат: MKV
Качество: BDRip (720p)
Видео: 1280x720, 2197 Кбит/сек, 23,976 кадр/сек, AVC, x264, 16:9, 0.099 Бит/(Пиксели*Кадры)
Звук: AC-3, 448 Кбит/сек, 6 канала(ов), 48,0 КГц
Размер: 2,27 ГБ


Format : Matroska
File size : 2.27 GiB
Duration : 2h 4mn
Overall bit rate : 2 617 Kbps
Movie name : Rip by NigAndr (FLINTFILMS.RU)
Encoded date : UTC 2010-08-21 23:13:00
Writing application : mkvmerge v3.0.0 ('Hang up your Hang-Ups') built on Dec 12 2009 15:20:35
Writing library : libebml v0.7.9 + libmatroska v0.8.1

Video
ID : 1
Format : AVC
Format/Info : Advanced Video Codec
Format profile : [email protected]
Format settings, CABAC : Yes
Format settings, ReFrames : 3 frames
Muxing mode : Container [email protected]
Codec ID : V_MPEG4/ISO/AVC
Duration : 2h 4mn
Bit rate : 2 197 Kbps
Width : 1 280 pixels
Height : 720 pixels
Display aspect ratio : 16:9
Frame rate : 23.976 fps
Color space : YUV
Chroma subsampling : 4:2:0
Bit depth : 8 bits
Scan type : Progressive
Bits/(Pixel*Frame) : 0.099
Stream size : 1.83 GiB (81%)
Title : Город грехов.
Writing library : x264 core 102 r1666 d058f37
Encoding settings : cabac=1 / ref=1 / deblock=1:0:0 / analyse=0x3:0x3 / me=dia / subme=1 / psy=1 / psy_rd=0.00:0.00 / mixed_ref=0 / me_range=16 / chroma_me=1 / trellis=0 / 8x8dct=1 / cqm=0 / deadzone=21,11 / fast_pskip=1 / chroma_qp_offset=0 / threads=6 / sliced_threads=0 / slices=4 / nr=0 / decimate=1 / interlaced=0 / constrained_intra=0 / bframes=3 / b_pyramid=1 / b_adapt=1 / b_bias=0 / direct=1 / weightb=1 / open_gop=0 / weightp=0 / keyint=24 / keyint_min=1 / scenecut=40 / intra_refresh=0 / rc_lookahead=0 / rc=abr / mbtree=0 / bitrate=2197 / ratetol=1.0 / qcomp=0.60 / qpmin=0 / qpmax=51 / qpstep=4 / vbv_maxrate=17500 / vbv_bufsize=14500 / ip_ratio=1.10 / pb_ratio=1.10 / aq=1:1.00 / nal_hrd=vbr
Language : English

Audio
ID : 2
Format : AC-3
Format/Info : Audio Coding 3
Mode extension : CM (complete main)
Codec ID : A_AC3
Duration : 2h 4mn
Bit rate mode : Constant
Bit rate : 448 Kbps
Channel(s) : 6 channels
Channel positions : Front: L C R, Side: L R, LFE
Sampling rate : 48.0 KHz
Bit depth : 16 bits
Video delay : 56ms
Stream size : 397 MiB (17%)
Title : Проф. (полное дублирование)
Language : Russian


                                



Информация о торрент файле
Скачать торрент
Жанр:
Боевики
Рейтинг:
Скачали:
61 раз (а)
Просмотров:
294
Общий размер:
Поделитесь ссылкой на наш сайт с друзьями в соц.сетях ↓




Всего комментариев: 0