» » » Темный рыцарь: Возрождение легенды / The Dark Knight Rises (2012) BDRip 1080p | Лицензия

Просмотров: 8 928


Просмотров: 8 000


Просмотров: 6 760


Просмотров: 4 202


Просмотров: 4 023


Просмотров: 2 163


Просмотров: 2 154


Темный рыцарь: Возрождение легенды / The Dark Knight Rises (2012) BDRip 1080p | Лицензия скачать торрент бесплатно в хорошем качестве



Страна: США, Великобритания
Студия: Warner Bros.
Жанр: боевик, драма, криминал
Год выпуска: 2012

Продолжительность: 02:44:32
Перевод: Профессиональный (дублированный)
Cубтитры: Русские, Английские

Режиссер: Кристофер Нолан / Christopher Nolan
В ролях: Кристиан Бэйл, Том Харди, Энн Хэтэуэй, Джозеф Гордон-Левитт, Марион Котийяр, Гари Олдман, Морган Фриман, Майкл Кейн, Мэтью Модайн, Бен Мендельсон

Описание: Восемь лет назад Бэтмен растворился в ночи, превратившись из героя в беглеца. Приняв на себя вину за смерть прокурора Харви Дента, Темный рыцарь пожертвовал всем. Вместе с комиссаром Гордоном они решили, что так будет лучше для всех. Пока преступность была раздавлена антикриминальным актом Дента, ложь действовала.

Но с появлением хитрой воровки с загадочным прошлым всё меняется. Тем не менее, еще опаснее становится появление террориста Бэйна, чье лицо закрыто маской. Он разворачивает в Готэме чудовищную деятельность, вынуждая Брюса Уэйна выйти из импровизированного изгнания. Однако даже надев свой костюм, Бэтмен может проиграть Бэйну.

Тип релиза: BDRip 1080p
Контейнер: MKV
Видео: 9000 kb/s, h264 (High), yuv420p, 1920x1080, PAR 1:1 DAR 16:9, 23.98 fps, 23.98 tbr, 1k tbn, 47.95 tbc (default)
Аудио 1: Stream #0.1 (rus): Audio: ас3, 48000 Hz, 5.1, 384 kb/s/с (default) (forced)
Аудио 2: Stream #0.2 (eng): Audio: dca (DTS), 48000 Hz, 5.1, s16, 1536 kb/s
Субтитры 1: Stream #0.3 (rus)
Субтитры 2: Stream #0.4 (eng)


Темный рыцарь: Возрождение легенды / The Dark Knight Rises (2012) BDRip 1080p | Лицензия Темный рыцарь: Возрождение легенды / The Dark Knight Rises (2012) BDRip 1080p | Лицензия Темный рыцарь: Возрождение легенды / The Dark Knight Rises (2012) BDRip 1080p | Лицензия



Информация о торрент файле
Скачать торрент
Жанр:
Боевики
Рейтинг:
Скачали:
60 раз (а)
Просмотров:
387
Общий размер:
Поделитесь ссылкой на наш сайт с друзьями в соц.сетях ↓




Всего комментариев: 0